Capa Baixar Filme Superman O Homem de Aço (Man of Steel) 2013   Torrent Baixaki Download

Baixar Filme Superman O Homem de Aço (Man of Steel) 2013 – Torrent
Descrição/Sinopse:A mais nova aventura do Superman, que terá como antagonista principal o General Zod, e não o Lex Luthor como de costume. Henry Cavill foi o escolhido para dar vida ao herói, enquanto que Amy Adams será a mocinha Lois Lane. Russell Crowe e Kevin Costner interpretam os pais do herói, Jor-El e Jonathan Kent. A direção é de Zack Snyder e a produção de Christopher Nolan.
DADOS DO FILME
  • Complete name : Man Of Steel 2013 V2 CAM AAC x264-SSDD.mp4
  • Format : MPEG-4
  • Format profile : Base Media
  • Codec ID : isom
  • File size : 550 MiB
  • Duration : 2h 12mn
  • Overall bit rate mode : Variable
  • Overall bit rate : 579 Kbps

Video:

  • Format : AVC
  • Format/Info : Advanced Video Codec
  • Format profile : High@L4.1
  • Format settings, CABAC : Yes
  • Format settings, ReFrames : 4 frames
  • Codec ID : avc1
  • Codec ID/Info : Advanced Video Coding
  • Duration : 2h 12mn
  • Bit rate : 511 Kbps
  • Maximum bit rate : 1 231 Kbps
  • Width : 682 pixels
  • Height : 288 pixels
  • Display aspect ratio : 2.35:1
  • Frame rate mode : Constant
  • Frame rate : 29.970 fps
  • Color space : YUV
  • Chroma subsampling : 4:2:0
  • Bit depth : 8 bits
  • Scan type : Progressive
  • Bits/(Pixel*Frame) : 0.087
  • Stream size : 485 MiB (88%)
  • Writing library : x264 core 133 r2334 a3ac64b

Audio:

  • Format : AAC
  • Format/Info : Advanced Audio Codec
  • Format profile : LC
  • Codec ID : 40
  • Duration : 2h 12mn
  • Bit rate mode : Variable
  • Bit rate : 64.0 Kbps
  • Maximum bit rate : 67.2 Kbps
  • Channel(s) : 2 channels
  • Channel positions : Front: L R
  • Sampling rate : 48.0 KHz
  • Compression mode : Lossy
  • Stream size : 60.7 MiB (11%)
  • Qualidade: Audio: 08 | Vídeo: 08
  • Legenda: S/L

SERVIDORES PARA DOWNLOADS

Superman O Homem de Aço (Man of Steel) 2013 – Torrent

Baixar Filme – Opção 1 – Torrent
Baixar Filme – Opção 2 – Torrent
Baixar Filme – Opção 3 – Torrent

Tags Buscadas:
  • man of steel torrent
  • man of steel download
  • superman man of steel download
  • Man Of Steel 2013 Torrent
  • baixar homem de aço torrent
  • baixar man of steel torrent
  • baixar o filme do superman o novo 2013
  • o homem de aço torrent hd download
  • superman o homem de aço 1080p download torrent
  • Superman O homem de Aço Hd torrent